#TITLE:WOW WOW 70's;
#SUBTITLE:;
#ARTIST:Sampling Masters AYA;
#TITLETRANSLIT:;
#SUBTITLETRANSLIT:;
#ARTISTTRANSLIT:;
#CREDIT:;
#BANNER:WowWow70s-banner.png;
#BACKGROUND:WowWow70s-bg.png;
#LYRICSPATH:;
#CDTITLE:;
#MUSIC:20.Wow Wow 70's.mp3;
#MUSICLENGTH:98.226;
#OFFSET:-0.420;
#SAMPLESTART:61.305;
#SAMPLELENGTH:12.000;
#SELECTABLE:YES;
#BPMS:0.000=125.960;
#STOPS:;
#BGCHANGES:;
#FIRSTBEAT:12.000;

#LASTBEAT:192.000;

#SONGFILENAME:Songs/ERICth The 3rd/Wow Wow 70s/wow70.sm;

#HASMUSIC:1;

#HASBANNER:1;


//---------------dance-single - MANIAC----------------
#NOTES:
     dance-single:
     MANIAC:
     hard:
     7:
     0.400,0.415,0.173,0.143,0.081,244.000,17.000,14.000,0.000,0.000:

0000
0000
0000
0000
,
0000
0000
0000
0000
,
0000
0000
0000
0000
,
0010
0000
0010
0000
0000
0010
0010
0000
,
1000
0001
1000
0100
1000
0010
1000
0100
,
0010
0100
0001
0100
1000
0100
0010
0100
,
1000
0010
0001
0010
1000
0010
0100
0010
,
0100
0000
0010
0000
1000
0000
0001
0000
1000
0000
0000
0000
0000
0000
0001
1000
,
0001
1000
0001
0100
0001
0010
0001
1000
,
0001
0100
1000
0100
0001
0010
1000
0010
,
0001
1000
0001
1000
0001
1000
0001
1000
,
0100
0010
0001
1000
0100
0010
0001
0000
,
0000
1000
0100
0000
0110
0000
0010
0000
,
0002
0000
0000
0103
0000
0000
1100
1100
,
0001
0000
1001
0000
0000
0000
0001
0000
0001
0000
0000
0000
1000
0010
1000
0010
,
0000
2000
0000
3000
0000
0000
0101
0000
,
0000
0000
0010
0000
0100
0000
0010
0000
0001
0010
1000
0000
1000
0000
0100
0000
,
0010
1000
0001
1000
0011
0000
0000
0000
,
1000
0100
0010
0001
0010
0100
1000
0001
,
1000
0000
0000
0000
0010
0100
0010
0200
,
0000
0000
0001
0001
,
1000
0000
0300
0000
0100
0001
0100
0002
,
0000
0000
0000
0000
0000
1000
0013
1010
,
0000
0011
0000
1010
0000
0010
0100
0002
,
1000
1000
1000
1000
,
1000
0000
1000
0000
1003
0100
0010
0020
,
0000
0000
0000
0000
0000
0100
0100
0200
,
0000
0330
0000
0110
0000
1000
0010
0100
,
0000
0100
0110
0000
0110
0000
0100
0000
,
0100
0000
0100
0000
0100
0000
0100
0200
,
0000
0010
0310
0000
0001
1000
0000
2000
,
0000
3000
0001
1001
0000
1001
1001
0000
,
0000
0000
1000
0010
0100
0001
0100
0010
,
1000
0000
0000
0000
1000
0000
0000
0000
1000
0000
0000
0001
1000
0000
1000
0000
,
0000
0000
0000
0000
0110
0000
0000
0000
0000
1000
0001
1000
0001
1000
0002
0000
,
0000
0010
0100
0103
,
0000
0000
0001
0010
0100
1000
0100
0010
,
0001
0000
0000
0000
0001
0000
0000
0000
0001
0000
0000
1000
0010
0000
0020
0000
,
0000
0000
0000
1030
,
0000
1000
0010
0100
0010
0100
0010
1000
,
0000
0000
1000
0010
0100
0001
0100
0010
,
1000
0000
0000
0000
1000
0000
0000
0000
1000
0000
0000
0001
1000
0000
1000
0000
,
0000
0000
0000
0000
0110
0000
0000
0000
0000
1000
0001
1000
0001
1000
0002
0000
,
0000
0010
0100
0103
,
0000
0000
0001
0010
0100
1000
0100
0010
,
0001
0000
0000
0000
0001
0000
0000
0000
0001
0000
0000
1000
0010
0000
0020
0000
,
0000
0000
0000
0030
1000
0100
0010
0002
,
0000
0000
0000
0000
0000
0000
0000
0000
0003
0000
0000
0000
0010
0100
0010
0100;

//---------------dance-single - ANOTHER----------------
#NOTES:
     dance-single:
     ANOTHER:
     medium:
     4:
     0.304,0.342,0.061,0.051,0.000,198.000,6.000,5.000,0.000,0.000:



0000
0000
0000
0000
,
0000
0000
0000
0000
,
0000
0000
0000
0000
,
0000
0000
0000
0000
,
0010
1000
0001
1000
,
0001
1000
0100
0000
0010
0000
0100
0000
,
1000
0001
1000
0000
0100
0000
0010
0000
,
0001
0000
1000
0000
0001
1000
0001
1000
,
0100
0100
0010
0100
,
0001
1000
0010
0000
0010
0000
0100
0000
,
0001
1000
0100
0000
0001
0000
1000
0000
,
0001
0010
0001
0000
0100
0000
0001
0000
,
0000
1000
0100
0000
0001
0000
0100
0000
,
0020
0000
0000
0030
0100
0000
0000
0000
,
0001
1000
0100
1000
,
0010
0000
1000
0000
0001
0010
0001
0000
,
0000
1000
0001
0100
0010
1000
0001
0000
,
0110
0010
0100
0010
0002
0000
0000
0003
,
0010
0100
1000
0001
,
0010
0000
0001
0000
1000
0010
1000
0020
,
0000
1000
1000
1000
,
1000
0000
1000
0030
0100
1000
0100
0002
,
0000
0000
0000
0000
,
1000
0000
1000
0000
1000
0000
1000
0003
,
0020
0000
0000
1000
,
1000
0000
0000
0000
0100
0000
0100
0030
,
0110
0001
1000
0100
,
0010
0000
0001
0000
1000
0000
0010
0100
,
0000
0001
0100
0000
0100
0000
0100
0000
,
0100
0000
0100
0000
0100
0000
0100
0001
,
0000
0001
0100
0000
0100
0001
0000
0001
,
0000
0000
0000
1000
0000
0001
1000
0000
,
0100
0000
1000
0010
1000
0100
0010
0001
,
1000
0000
0001
0000
0100
0000
0010
0010
,
0000
0001
1000
0100
,
0010
0001
1000
1010
,
0000
0001
1000
0100
0010
0001
1000
0000
,
0100
0000
1000
0000
0010
1000
0001
0100
,
0000
0000
0001
0000
0000
1000
0100
0001
,
0000
1000
0100
0001
0100
1000
0100
0001
,
0000
0000
0001
0000
0100
0000
1000
0010
,
1000
0000
0001
0000
0010
0000
0001
1000
,
0100
0011
0001
1000
,
0010
0000
1001
1001
,
0001
0000
1000
0100
0010
0001
0000
0001
,
0100
0000
0001
0000
0100
0000
0001
0100
,
0000
0000
0001
0000
0100
0001
0100
0001
,
0000
0010
0000
0000
1000
0000
0001
1000
,
0001
0000
0000
0000;

//---------------dance-single - BASIC----------------
#NOTES:
     dance-single:
     BASIC:
     easy:
     2:
     0.153,0.269,0.061,0.041,0.000,95.000,6.000,4.000,0.000,0.000:



0000
0000
0000
0000
,
0000
0000
0000
0000
,
0000
0000
0000
0000
,
0100
0000
0000
0100
,
0100
0000
0000
0000
,
0010
0000
0000
0001
,
1000
0001
0000
0000
,
0100
0000
0000
0010
,
0100
0000
0000
0000
,
0001
0000
0001
1000
,
0100
0000
0000
0000
,
0010
0000
0000
0000
,
0001
1000
0001
0000
,
0100
0010
0100
0000
,
1000
0001
1000
0000
,
0010
0100
0010
0000
,
0001
0000
0001
0000
,
1000
0000
1000
0000
,
0010
0100
0010
0000
,
0001
1000
0100
0000
,
0200
0000
0000
0000
,
0000
0000
0000
0300
,
0020
0000
0000
0000
,
0000
0000
0000
0030
,
0002
0000
0000
0000
,
0000
0000
0000
0000
,
2003
0000
0000
0000
,
0000
0000
0000
3000
,
0010
0000
0100
0000
,
0100
0000
0010
0001
,
0010
0000
0001
0000
,
0001
0000
0001
0000
,
0100
0001
1000
0100
,
0010
0010
0100
0100
,
0001
0000
0000
0000
,
0000
0000
0000
0000
,
0010
1000
0001
0100
,
0010
0010
0100
1000
,
0001
0000
0000
0000
,
0000
0000
0000
0000
,
1010
0101
0010
1000
,
0100
0100
0010
0001
,
1000
0000
0000
0001
,
1000
0000
0001
1000
,
0001
0100
0010
0001
,
1000
1000
0010
0100
,
0001
1000
0000
0110
,
0000
0110
0000
0110
,
0110
0000
0000
0000;
